<?xml version="1.0" standalone="no"?>
<!DOCTYPE svg PUBLIC "-//W3C//DTD SVG 1.1//EN" "http://www.w3.org/Graphics/SVG/1.1/DTD/svg11.dtd" >
<svg xmlns="http://www.w3.org/2000/svg">
<metadata>Generated by IcoMoon</metadata>
<defs>
<font id="icomoon" horiz-adv-x="1024">
<font-face units-per-em="1024" ascent="960" descent="-64" />
<missing-glyph horiz-adv-x="1024" />
<glyph unicode="&#x20;" horiz-adv-x="512" d="" />
<glyph unicode="&#xe900;" glyph-name="basis" d="M262.4 192c22.4 67.2 96 102.4 163.2 76.8 35.2-12.8 64-41.6 76.8-76.8h435.2v-86.4h-432c-22.4-67.2-96-102.4-163.2-76.8-35.2 12.8-64 41.6-76.8 76.8h-179.2v86.4h176zM518.4 489.6c22.4 67.2 96 102.4 163.2 76.8 35.2-12.8 64-41.6 76.8-76.8h179.2v-86.4h-179.2c-22.4-67.2-96-102.4-163.2-76.8-35.2 12.8-64 41.6-76.8 76.8h-432v86.4h432zM262.4 790.4c22.4 67.2 96 102.4 163.2 76.8 35.2-12.8 64-41.6 76.8-76.8h435.2v-86.4h-432c-22.4-67.2-96-102.4-163.2-76.8-38.4 12.8-67.2 41.6-80 76.8h-176v86.4h176z" />
<glyph unicode="&#xe901;" glyph-name="design-layout-2" d="M256 873.6h512c22.4 0 41.6-19.2 41.6-41.6v-768c0-22.4-19.2-41.6-41.6-41.6h-512c-22.4 0-41.6 19.2-41.6 41.6v768c0 22.4 19.2 41.6 41.6 41.6zM512 256c-35.2 0-64-28.8-64-64s28.8-64 64-64c35.2 0 64 28.8 64 64s-28.8 64-64 64z" />
<glyph unicode="&#xe902;" glyph-name="order" d="M169.6 684.8l-137.6 140.8 60.8 60.8 137.6-137.6h649.6c22.4 0 41.6-19.2 41.6-41.6 0-3.2 0-9.6-3.2-12.8l-99.2-342.4c-6.4-19.2-22.4-32-41.6-32h-521.6v-86.4h470.4v-86.4h-512c-22.4 0-41.6 19.2-41.6 41.6v496zM233.6-22.4c-35.2 0-64 28.8-64 64s28.8 64 64 64 64-28.8 64-64-28.8-64-64-64zM745.6-22.4c-35.2 0-64 28.8-64 64s28.8 64 64 64 64-28.8 64-64-28.8-64-64-64z" />
<glyph unicode="&#xe903;" glyph-name="customer" d="M169.6 22.4c0 188.8 153.6 342.4 342.4 342.4s342.4-153.6 342.4-342.4h-684.8zM512 406.4c-140.8 0-256 115.2-256 256s115.2 256 256 256 256-115.2 256-256-115.2-256-256-256z" />
<glyph unicode="&#xe904;" glyph-name="design-layout-10" d="M553.6 192v-86.4h169.6v-86.4h-425.6v86.4h169.6v86.4h-339.2c-22.4 0-41.6 19.2-41.6 41.6 0 0 0 0 0 0v556.8c0 22.4 19.2 41.6 41.6 41.6h768c22.4 0 41.6-19.2 41.6-41.6v-553.6c0-22.4-19.2-41.6-41.6-41.6h-342.4z" />
<glyph unicode="&#xe905;" glyph-name="ordermail" d="M896 832h-768c-22.4 0-41.6-19.2-41.6-41.6v-684.8c0-22.4 19.2-41.6 41.6-41.6h768c22.4 0 41.6 19.2 41.6 41.6v684.8c0 22.4-19.2 41.6-41.6 41.6zM720 528l-204.8-176-329.6 278.4 54.4 64 275.2-233.6 140.8 121.6 128 112 54.4-64-118.4-102.4z" />
<glyph unicode="&#xe906;" glyph-name="products" d="M464 870.4l422.4-60.8 60.8-422.4-390.4-390.4c-16-16-44.8-16-60.8 0l-422.4 422.4c-16 16-16 44.8 0 60.8l390.4 390.4zM585.6 508.8c32-32 86.4-32 121.6 0 32 32 32 86.4 0 121.6s-86.4 32-121.6 0-32-89.6 0-121.6z" />
<glyph unicode="&#xe907;" glyph-name="campaign" d="M896 470.4v-406.4c0-22.4-19.2-41.6-41.6-41.6h-684.8c-22.4 0-41.6 19.2-41.6 41.6v406.4c32-35.2 76.8-60.8 128-60.8s96 22.4 128 60.8c32-35.2 76.8-60.8 128-60.8s96 22.4 128 60.8c32-35.2 76.8-60.8 128-60.8s96 22.4 128 60.8zM934.4 870.4v-198.4c0-92.8-73.6-166.4-166.4-166.4-51.2 0-96 22.4-128 60.8-32-35.2-76.8-60.8-128-60.8s-96 22.4-128 60.8c-32-35.2-76.8-60.8-128-60.8-92.8 0-166.4 73.6-166.4 166.4v198.4h844.8z" />
<glyph unicode="&#xe908;" glyph-name="mail" d="M937.6 361.6c-128 57.6-281.6 3.2-339.2-124.8-25.6-54.4-28.8-115.2-16-169.6h-454.4c-22.4 0-41.6 19.2-41.6 41.6v681.6c0 22.4 19.2 41.6 41.6 41.6h768c22.4 0 41.6-19.2 41.6-41.6v-428.8zM515.2 460.8l-275.2 233.6-54.4-64 329.6-278.4 323.2 278.4-54.4 64-268.8-233.6zM832 32l-112-60.8 22.4 124.8-92.8 89.6 124.8 19.2 57.6 115.2 57.6-115.2 124.8-19.2-92.8-89.6 22.4-124.8-112 60.8z" />
<glyph unicode="&#xe909;" glyph-name="stepmail" d="M937.6 412.8c-121.6 70.4-278.4 28.8-348.8-92.8-44.8-80-44.8-176 0-256h-460.8c-22.4 0-41.6 19.2-41.6 41.6v684.8c0 22.4 19.2 41.6 41.6 41.6h768c22.4 0 41.6-19.2 41.6-41.6v-377.6zM515.2 460.8l-275.2 233.6-54.4-64 329.6-278.4 323.2 278.4-54.4 64-268.8-233.6zM784 227.2l-80 99.2 240-28.8-28.8-240-80 102.4-131.2-105.6-51.2 67.2 131.2 105.6z" />
<glyph unicode="&#xe90a;" glyph-name="advertising" d="M512 832v-169.6h-384v169.6h384zM681.6 233.6v-169.6h-553.6v169.6h553.6zM937.6 534.4v-169.6h-809.6v169.6h809.6z" />
<glyph unicode="&#xe90b;" glyph-name="system" d="M89.6 377.6c-6.4 44.8-6.4 92.8 0 137.6 48 0 89.6 22.4 105.6 60.8s3.2 86.4-32 118.4c28.8 41.6 60.8 73.6 99.2 99.2 32-35.2 76.8-48 118.4-32s60.8 57.6 60.8 105.6c44.8 6.4 92.8 6.4 137.6 0 0-48 22.4-89.6 60.8-105.6s86.4-3.2 118.4 32c41.6-25.6 73.6-57.6 99.2-96-35.2-32-48-76.8-32-118.4 16-38.4 57.6-60.8 105.6-60.8 6.4-44.8 6.4-92.8 0-137.6-48 0-89.6-22.4-105.6-60.8s-3.2-86.4 32-118.4c-25.6-41.6-57.6-73.6-96-99.2-32 35.2-76.8 48-118.4 32-38.4-16-60.8-57.6-60.8-105.6-44.8-6.4-92.8-6.4-137.6 0 0 48-22.4 89.6-60.8 105.6s-86.4 3.2-118.4-32c-41.6 25.6-73.6 57.6-99.2 96 35.2 32 48 76.8 32 118.4s-60.8 64-108.8 60.8v0zM512 320c70.4 0 128 57.6 128 128s-57.6 128-128 128-128-57.6-128-128 57.6-128 128-128z" />
<glyph unicode="&#xe90c;" glyph-name="total" d="M128 832h768c22.4 0 41.6-19.2 41.6-41.6v-681.6c0-22.4-19.2-41.6-41.6-41.6h-768c-22.4 0-41.6 19.2-41.6 41.6v681.6c0 22.4 19.2 41.6 41.6 41.6zM224 403.2v-179.2h131.2v179.2h-131.2zM448 672v-448h131.2v448h-131.2zM668.8 537.6v-313.6h131.2v313.6h-131.2z" />
<glyph unicode="&#xe90d;" glyph-name="estimate" d="M854.4 22.4h-684.8c-22.4 0-41.6 19.2-41.6 41.6v768c0 22.4 19.2 41.6 41.6 41.6h681.6c25.6 0 44.8-19.2 44.8-41.6v-768c0-22.4-19.2-41.6-41.6-41.6zM297.6 704v-169.6h169.6v169.6h-169.6zM297.6 448v-86.4h425.6v86.4h-425.6zM297.6 278.4v-86.4h425.6v86.4h-425.6zM553.6 662.4v-86.4h169.6v86.4h-169.6z" />
<glyph unicode="&#xe90e;" glyph-name="member" d="M896 502.4v-134.4c-214.4 12.8-320-137.6-304-304 0-12.8 0-28.8 3.2-41.6h-425.6c-22.4 0-41.6 19.2-41.6 41.6v438.4c32-35.2 76.8-60.8 128-60.8s96 22.4 128 60.8c32-35.2 76.8-60.8 128-60.8s96 22.4 128 60.8c32-35.2 76.8-60.8 128-60.8s96 22.4 128 60.8zM934.4 870.4v-166.4c0-92.8-73.6-166.4-166.4-166.4-51.2 0-96 22.4-128 60.8-32-35.2-76.8-60.8-128-60.8s-96 22.4-128 60.8c-32-35.2-76.8-60.8-128-60.8-92.8 0-166.4 73.6-166.4 166.4v166.4h844.8zM905.6 134.4h118.4v-80h-118.4v-118.4h-80v118.4h-121.6v80h121.6v121.6h80z" />
<glyph unicode="&#xe90f;" glyph-name="wms" d="M64 649.6v0 0-400c0-28.8 16-54.4 38.4-67.2l377.6-214.4v444.8l-281.6 156.8-134.4 80zM633.6 537.6v0 0l-419.2 233.6-76.8-44.8-44.8-22.4 419.2-236.8 80 44.8zM774.4 617.6l153.6 86.4-377.6 214.4c-22.4 12.8-54.4 12.8-76.8 0l-76.8-41.6-38.4-22.4 416-236.8zM960 649.6v0 0l-153.6-86.4v-195.2l-96-54.4-44.8-25.6v195.2l-121.6-70.4v-444.8l121.6 70.4 140.8 80 115.2 64c25.6 12.8 38.4 38.4 38.4 67.2v400z" />
<glyph unicode="&#xe910;" glyph-name="update" d="M780.8 784l-108.8-156.8c12.8-9.6 25.6-19.2 35.2-32 51.2-51.2 80-118.4 80-195.2s-32-144-80-195.2c-51.2-51.2-118.4-80-195.2-80-41.6 0-80 9.6-115.2 25.6-6.4 3.2-16 6.4-22.4 12.8-6.4 3.2-12.8 9.6-19.2 12.8-12.8 9.6-25.6 19.2-38.4 32-51.2 51.2-80 118.4-80 195.2s32 144 80 195.2c32 32 73.6 57.6 121.6 70.4v-83.2l185.6 188.8-182.4 185.6v-99.2c-224-35.2-393.6-227.2-393.6-460.8 0-156.8 80-297.6 198.4-380.8 9.6-6.4 22.4-16 35.2-22.4s22.4-12.8 35.2-19.2c60.8-28.8 128-44.8 198.4-44.8 256 0 467.2 208 467.2 467.2-3.2 160-80 300.8-201.6 384z" />
<glyph unicode="&#xe911;" glyph-name="document" d="M857.6 960h-403.2v-278.4c0-32-25.6-54.4-54.4-54.4h-281.6v-646.4c0-25.6 19.2-44.8 44.8-44.8h694.4c25.6 0 44.8 19.2 44.8 44.8v934.4c3.2 25.6-19.2 44.8-44.8 44.8zM764.8 92.8h-505.6v48h508.8v-48zM764.8 288h-505.6v48h508.8v-48zM764.8 486.4h-505.6v48h508.8v-48zM764.8 681.6h-240v51.2h240v-51.2zM400 713.6v233.6l-265.6-268.8h233.6c22.4 0 32 9.6 32 35.2z" />
<glyph unicode="&#xe912;" glyph-name="mail-send" d="M86.4 726.4v64c0 22.4 19.2 41.6 41.6 41.6h768c22.4 0 41.6-19.2 41.6-41.6v-684.8c0-22.4-19.2-41.6-41.6-41.6h-768c-22.4 0-41.6 19.2-41.6 41.6v41.6h768v502.4l-342.4-307.2-425.6 384zM0 534.4h214.4v-86.4h-214.4v86.4zM0 320h342.4v-86.4h-342.4v86.4z" />
<glyph unicode="&#xe913;" glyph-name="orderentry" d="M853.333 21.333h-682.667c-23.564 0-42.667 19.103-42.667 42.667v0 768c0 23.564 19.103 42.667 42.667 42.667v0h682.667c23.564 0 42.667-19.103 42.667-42.667v0-768c0-23.564-19.103-42.667-42.667-42.667v0zM341.333 661.333v-85.333h341.333v85.333h-341.333zM341.333 490.667v-85.333h341.333v85.333h-341.333zM341.333 320v-85.333h341.333v85.333h-341.333z" />
<glyph unicode="&#xe914;" glyph-name="placing" d="M896 309.632v-245.973c-0.024-23.381-18.984-42.325-42.368-42.325h-683.264c-23.436 0.169-42.369 19.206-42.369 42.666 0 0.105 0 0.211 0.001 0.316v-0.016 511.701h256c23.564 0 42.667 19.103 42.667 42.667v0 256h426.752c23.509 0 42.581-19.413 42.581-42.325v-160.64l-383.957-384-0.256-180.821 181.163-0.256 203.051 203.008zM929.195 584.192l60.331-60.331-331.861-331.861-60.416 0.085 0.085 60.245 331.861 331.861zM128 661.333l213.333 213.205v-213.205h-213.333z" />
<glyph unicode="&#xe915;" glyph-name="bussiness" d="M853.333 21.333h-682.667c-23.564 0-42.667 19.103-42.667 42.667v0 768c0 23.564 19.103 42.667 42.667 42.667v0h682.667c23.564 0 42.667-19.103 42.667-42.667v0-768c0-23.564-19.103-42.667-42.667-42.667v0zM341.333 576v-85.333h341.333v85.333h-341.333zM341.333 405.333v-85.333h341.333v85.333h-341.333z" />
<glyph unicode="&#xe9ae;" glyph-name="briefcase" d="M960 704h-256v64c0 35.2-28.8 64-64 64h-256c-35.204 0-64-28.8-64-64v-64h-256c-35.2 0-64-28.8-64-64v-576c0-35.202 28.796-64 64-64h896c35.2 0 64 28.798 64 64v576c0 35.2-28.8 64-64 64zM384 767.884c0.034 0.040 0.074 0.082 0.114 0.116h255.772c0.042-0.034 0.082-0.076 0.118-0.116v-63.884h-256.004v63.884zM960 448h-128v-96c0-17.602-14.4-32-32-32h-64c-17.604 0-32 14.398-32 32v96h-384v-96c0-17.602-14.4-32-32-32h-64c-17.602 0-32 14.398-32 32v96h-128v64h896v-64z" />
</font>
</defs>
</svg>
